Вторник, 30.05.2017, 04:16
Приветствую Вас Гость | RSS





Ссылки доступны зарегистрированным пользователям /Links are available for registered users
Главная » Скачать бесплатно
» Музыка (lossless) » Metal Heavy/Power/Speed lossless

Iron Savior - Titancraft (2016)
26.05.2016, 16:32


Iron Savior (с англ. — «Железный спаситель») — немецкая группа, играющая в стиле пауэр-метал, созданная в 1996 году Питом Силком, Каем Хансеном, и Томеном Штаухом. Основной темой песен группы является научная фантастика. Большинство их песен повествуют о космическом корабле «Iron Savior» и связаны с исчезнувшим континентом — Атлантидой. В текстах песен также встречаются темы восприятия реальности и духа свободы.
вики





Log

Exact Audio Copy V1.1 from 23. June 2015

EAC extraction logfile from 20. May 2016, 18:52

Iron Savior / Titancraft

Used drive  : PLDS    DVD+-RW DH-24ABS   Adapter: 1  ID: 0

Read mode               : Secure
Utilize accurate stream : Yes
Defeat audio cache      : Yes
Make use of C2 pointers : No

Read offset correction                      : 6
Overread into Lead-In and Lead-Out          : No
Fill up missing offset samples with silence : Yes
Delete leading and trailing silent blocks   : No
Null samples used in CRC calculations       : Yes
Used interface                              : Native Win32 interface for Win NT & 2000
Gap handling                                : Appended to previous track

Used output format              : User Defined Encoder
Selected bitrate                : 128 kBit/s
Quality                         : High
Add ID3 tag                     : No
Command line compressor         : C:\Program Files (x86)\Exact Audio Copy\Flac\flac.exe
Additional command line options : -8 -e -V -T "ARTIST=%artist%" -T "TITLE=%title%" -T "ALBUM=%albumtitle%" -T "DATE=%year%" -T "TRACKNUMBER=%tracknr%" -T "GENRE=%genre%" -T "PERFORMER=%albuminterpret%" -T "COMPOSER=%composer%" %haslyrics%--tag-from-file=LYRICS="%lyricsfile%"%haslyrics% -T "ALBUMARTIST=%albumartist%" -T "DISCNUMBER=%cdnumber%" -T "TOTALDISCS=%totalcds%" -T "TOTALTRACKS=%numtracks%" -T "COMMENT=%comment%" %source% -o %dest%


TOC of the extracted CD

     Track |   Start  |  Length  | Start sector | End sector
    ---------------------------------------------------------
        1  |  0:00.00 |  0:58.44 |         0    |     4393   
        2  |  0:58.44 |  5:21.47 |      4394    |    28515   
        3  |  6:20.16 |  3:58.30 |     28516    |    46395   
        4  | 10:18.46 |  4:57.32 |     46396    |    68702   
        5  | 15:16.03 |  5:08.74 |     68703    |    91876   
        6  | 20:25.02 |  5:59.25 |     91877    |   118826   
        7  | 26:24.27 |  5:02.73 |    118827    |   141549   
        8  | 31:27.25 |  5:11.16 |    141550    |   164890   
        9  | 36:38.41 |  5:23.66 |    164891    |   189181   
       10  | 42:02.32 |  4:06.07 |    189182    |   207638   
       11  | 46:08.39 |  4:49.66 |    207639    |   229379   


Track  1

     Filename C:\EAC\Iron Savior - Titancraft (2011) [FLAC]\01 - Under Siege (Intro).wav

     Pre-gap length  0:00:02.00

     Peak level 98.0 %
     Extraction speed 1.2 X
     Track quality 100.0 %
     Test CRC CD0EE810
     Copy CRC CD0EE810
     Track not present in AccurateRip database
     Copy OK

Track  2

     Filename C:\EAC\Iron Savior - Titancraft (2011) [FLAC]\02 - Titancraft.wav

     Peak level 98.8 %
     Extraction speed 2.0 X
     Track quality 100.0 %
     Test CRC 01E2ADFF
     Copy CRC 01E2ADFF
     Track not present in AccurateRip database
     Copy OK

Track  3

     Filename C:\EAC\Iron Savior - Titancraft (2011) [FLAC]\03 - Way of the Blade.wav

     Peak level 98.8 %
     Extraction speed 1.6 X
     Track quality 99.9 %
     Test CRC 0AA11742
     Copy CRC 0AA11742
     Track not present in AccurateRip database
     Copy OK

Track  4

     Filename C:\EAC\Iron Savior - Titancraft (2011) [FLAC]\04 - Seize the Day.wav

     Peak level 98.8 %
     Extraction speed 2.4 X
     Track quality 100.0 %
     Test CRC B4690155
     Copy CRC B4690155
     Track not present in AccurateRip database
     Copy OK

Track  5

     Filename C:\EAC\Iron Savior - Titancraft (2011) [FLAC]\05 - Gunsmoke.wav

     Peak level 98.8 %
     Extraction speed 2.6 X
     Track quality 100.0 %
     Test CRC D79AC5FF
     Copy CRC D79AC5FF
     Track not present in AccurateRip database
     Copy OK

Track  6

     Filename C:\EAC\Iron Savior - Titancraft (2011) [FLAC]\06 - Beyond the Horizon.wav

     Peak level 98.8 %
     Extraction speed 2.8 X
     Track quality 100.0 %
     Test CRC 93D55BA4
     Copy CRC 93D55BA4
     Track not present in AccurateRip database
     Copy OK

Track  7

     Filename C:\EAC\Iron Savior - Titancraft (2011) [FLAC]\07 - The Sun Won't Rise In Hell.wav

     Peak level 98.8 %
     Extraction speed 3.0 X
     Track quality 100.0 %
     Test CRC DD0D2ABC
     Copy CRC DD0D2ABC
     Track not present in AccurateRip database
     Copy OK

Track  8

     Filename C:\EAC\Iron Savior - Titancraft (2011) [FLAC]\08 - Strike Down the Tyranny.wav

     Peak level 98.8 %
     Extraction speed 3.2 X
     Track quality 100.0 %
     Test CRC 1E09DCCD
     Copy CRC 1E09DCCD
     Track not present in AccurateRip database
     Copy OK

Track  9

     Filename C:\EAC\Iron Savior - Titancraft (2011) [FLAC]\09 - Brother In Arms.wav

     Peak level 98.8 %
     Extraction speed 3.4 X
     Track quality 100.0 %
     Test CRC 1FD5E7A1
     Copy CRC 1FD5E7A1
     Track not present in AccurateRip database
     Copy OK

Track 10

     Filename C:\EAC\Iron Savior - Titancraft (2011) [FLAC]\10 - I Surrender.wav

     Peak level 98.8 %
     Extraction speed 3.4 X
     Track quality 100.0 %
     Test CRC 34AB5E71
     Copy CRC 34AB5E71
     Track not present in AccurateRip database
     Copy OK

Track 11

     Filename C:\EAC\Iron Savior - Titancraft (2011) [FLAC]\11 - Rebellious.wav

     Peak level 98.8 %
     Extraction speed 3.6 X
     Track quality 100.0 %
     Test CRC 53F3674F
     Copy CRC 53F3674F
     Track not present in AccurateRip database
     Copy OK


None of the tracks are present in the AccurateRip database

No errors occurred

End of status report

---- CUETools DB Plugin V2.1.6

[CTDB TOCID: nRCx9ng48N6CjhCMu6IdkQAOzrA-] disk not present in database
Submit result: nRCx9ng48N6CjhCMu6IdkQAOzrA- has been uploaded


==== Log checksum B0F6E4404F75D130B92F0DE73050DBBE7D73A2E55C3F7C737BE8F6F9BC90F667 ====

Cue

REM GENRE Metal
REM DATE 2016
REM DISCID 8A0BF20B
REM COMMENT "ExactAudioCopy v1.1"
PERFORMER "Iron Savior"
TITLE "Titancraft"
FILE "01 - Under Siege (Intro).wav" WAVE
  TRACK 01 AUDIO
    TITLE "Under Siege (Intro)"
    PERFORMER "Iron Savior"
    ISRC DEU601606255
    INDEX 01 00:00:00
FILE "02 - Titancraft.wav" WAVE
  TRACK 02 AUDIO
    TITLE "Titancraft"
    PERFORMER "Iron Savior"
    ISRC DEU601606256
    INDEX 01 00:00:00
FILE "03 - Way of the Blade.wav" WAVE
  TRACK 03 AUDIO
    TITLE "Way of the Blade"
    PERFORMER "Iron Savior"
    ISRC DEU601606257
    INDEX 01 00:00:00
FILE "04 - Seize the Day.wav" WAVE
  TRACK 04 AUDIO
    TITLE "Seize the Day"
    PERFORMER "Iron Savior"
    ISRC DEU601606264
    INDEX 01 00:00:00
FILE "05 - Gunsmoke.wav" WAVE
  TRACK 05 AUDIO
    TITLE "Gunsmoke"
    PERFORMER "Iron Savior"
    ISRC DEU601606258
    INDEX 01 00:00:00
FILE "06 - Beyond the Horizon.wav" WAVE
  TRACK 06 AUDIO
    TITLE "Beyond the Horizon"
    PERFORMER "Iron Savior"
    ISRC DEU601606259
    INDEX 01 00:00:00
FILE "07 - The Sun Won't Rise In Hell.wav" WAVE
  TRACK 07 AUDIO
    TITLE "The Sun Won't Rise In Hell"
    PERFORMER "Iron Savior"
    ISRC DEU601606259
    INDEX 01 00:00:00
FILE "08 - Strike Down the Tyranny.wav" WAVE
  TRACK 08 AUDIO
    TITLE "Strike Down the Tyranny"
    PERFORMER "Iron Savior"
    ISRC DEU601606260
    INDEX 01 00:00:00
FILE "09 - Brother In Arms.wav" WAVE
  TRACK 09 AUDIO
    TITLE "Brother In Arms"
    PERFORMER "Iron Savior"
    ISRC DEU601606262
    INDEX 01 00:00:00
FILE "10 - I Surrender.wav" WAVE
  TRACK 10 AUDIO
    TITLE "I Surrender"
    PERFORMER "Iron Savior"
    ISRC DEU601606262
    INDEX 01 00:00:00
FILE "11 - Rebellious.wav" WAVE
  TRACK 11 AUDIO
    TITLE "Rebellious"
    PERFORMER "Iron Savior"
    ISRC DEU601606263
    INDEX 01 00:00:00

 

All Hard rock and Metal

Категория: Metal Heavy/Power/Speed lossless | Добавил: BozMozzis
Просмотров: 193 |



Похожие новости
:
  • нет похожих новостей

B
H
| Рейтинг: 0.0/0
Ссылки доступны зарегистрированным пользователям /Links are available for registered users
Главная ссылка находится вверху слева под названием темы .Если в теме есть свободно доступные ссылки и они не рабочие, то может быть есть и закрытая ссылка, если нет свободно доступных ссылок, то tогда обязательно есть закрытая ссылка, зарегистрируйтесь и увидите её))// The great link is under the title of the topic /at the top
Все ссылки, размещенные на сайте crown6.org, представлены исключительно для ознакомительного прослушивания. Все файлы лежат на сторонних серверах, к которым сайт crown6.org не имеет никакого отношения. Cайт является на 90 % информационным блогом, на котором также для ознакомления выкладываются ссылки на файлы, которые доступны публично. После прослушивания Вы обязаны удалить скачанные файлы и приобрести легальную копию. 
Если Вы являетесь правообладателем какого-либо материала, который размещен на сайте, и не хотели бы чтобы данная информация распространялась пользователями без Вашего на то согласия, то мы будем рады оказать Вам содействие, удалив соответствующий материал. Цель сайта - донести до людей ваше творчество, добавив популярность .
+++++++++
Всего комментариев: 0
Добавлять комментарии могут только зарегистрированные пользователи.
[ Регистрация | Вход ]
Загрузка...

Ежевичное вино - Джоан ...

09:48:08
0 0 0.0

Делириум - Оливер Лорен...

12:40:58
0 0 0.0

Отягощенные Злом - Стру...

07:53:24
0 0 0.0

Забытая история любви -...

15:34:47
0 0 0.0

Ганнибал. Восхождение -...

07:39:07
0 0 0.0

Самые Ожидаемые Фильмы ...

00:13:59
0 0 0.0

Принц и нищий - Марк Тв...

06:14:49
0 0 0.0

Тайна китайской вазы - ...

00:45:07
0 0 0.0

Редкое знакомство - (пр...

01:35:22
0 0 0.0

Пирушка с привидениями ...

01:20:56
0 0 0.0

13 Загадок - Агата Крис...

01:25:43
0 0 0.0

Лимоны желтые - Кайса И...

10:23:17
0 0 0.0

Роберт Шекли - После эт...

01:21:33
0 0 0.0

Разведопрос: Баир Иринч...

01:43:42
0 0 0.0

PINK FLOYD & AND TH...

01:14:24
0 0 0.0

Трансформеры: Последний...

00:02:18
0 0 0.0


[31.12.2017][Rock lossless]
Музыкальный форум на crown6.org (0)
[29.05.2017][Художественная литература]
Серия Акцент на убийство (4 книги) (0)
[29.05.2017][Документальная литература]
Серия Актуальная тема (6 книг) (0)
[29.05.2017][Художественная литература]
Татьяна Соломатина - Сборник сочинений (34 книги) (0)
[29.05.2017][Документальная литература]
Иллюстрированная военная история (7 книг) (0)
[28.05.2017][Rock lossless]
Lance Keltner ‎- Lance Keltner (1992) (0)
[27.05.2017][Стихи, поэзия]
Иван Аксаков - Сборник сочинений (63 книги) (0)
[27.05.2017][Художественная литература]
Иоганнес Марио Зиммель - Сборник сочинений (15 книг) (0)
[26.05.2017][Художественная литература]
Акула пера в мире Файролла (11 книг) (0)
[25.05.2017][Художественная литература]
Серия Акула (4 книги) (0)


Загрузка...


[02.11.2016]
Значение привычных стер...
[02.11.2016]
Денежные значки ...
[08.09.2015]
"Бросание лисицы&q...
[30.01.2015]
30 сайтов для создания ...
[06.10.2014]
Сказки русского леса
[06.10.2014]
История компании Coca-C...
[06.10.2014]
Из мифов Древней Греции...
[05.10.2014]
Кое-что о шахматах
[19.08.2014]
Познавательные GIF-ки
[02.07.2014]
История про английское ...




Меню сайта
!
***

ЛИНИИ ЖИЗНИ
Музыкальный дневник
Интересное рядом
Страны и Континенты
FREE DOWNLOAD
ИГРЫ-ОНЛАЙН





Любите вязать? Вам сюда )


***
Контакты и помощь сайту


Форма входа

Категории раздела
!
Rock lossless [731]
Classic,Rock`n`Roll,Glam,Shock,Garage
Hard Rock lossless [1539]
Hard Rock,Sludge,Stoner,Grunge
Metal/Rock Alternative lossless [182]
Alternative Rock,Hardcore,Metalcore,Emo
Metal/Rock Progressive lossless [798]
Metal/Rock Progressive lossless
Metal Heavy/Power/Speed lossless [1543]
Metal Heavy/Power/Speed/
Metal Thrash/Death/Doom/Black lossless [1130]
Metal Thrash/Death/Black/Sludge/Stoner/Doom
Metal Doom/Gothic/Dark/Ambient lossless [373]
Metal Doom/Gothic/Dark/Ambient/Gothic Rock
Folk /Epic /Viking Metal/Rock lossless [78]
Industrial/Techno/EBM/Synth lossless [118]
Industrial/Techno/EBM/Synth
Instrumental/Guitar/Neo-classical [36]
Punk/Alternative/Grunge/Emo [45]
Rap/Hip Hop lossless [2]
Rap/Hip Hop
Reggae, Ska, Dub [47]
Disco, Popular, Retro lossless [315]
Клубная, танцевальная
Classic/Neo-classic lossless [22]
Классическая, нео
Jazz/Blues .. lossless [234]
Country/ Folk/ Ethno lossless [201]
Country
Разная/Other lossless [60]

***
***
Поиск
****
***
Мини-чат
Друзья сайта
  • Форум Darksage
  • Darksage.ru
  • World Vision


  • место для рекламы


    *Скачать бесплатно
    _____download free

    Музыка,Книги,..


    [31.12.2017]
    Музыкальный форум на cr...
    [29.05.2017]
    Серия Акцент на убийств...
    [29.05.2017]
    Серия Актуальная тема (...
    [29.05.2017]
    Татьяна Соломатина - Сб...
    [29.05.2017]
    Иллюстрированная военна...
    [28.05.2017]
    Lance Keltner ‎- Lance ...
    [27.05.2017]
    Иван Аксаков - Сборник ...
    [27.05.2017]
    Иоганнес Марио Зиммель ...
    [26.05.2017]
    Акула пера в мире Файро...
    [25.05.2017]
    Серия Акула (4 книги)


    Статистика

    Онлайн всего: 11
    Гостей: 11
    Пользователей: 0




    Счетчик PR-CY.Rank


    ***********
    ************
    Загрузка...
    _____________



    художники фотоработы Thrash Metal фотохудожники дача путешествие кино - онлайн Сказки Шитьё здоровье крючок искусство фентази куклы Поэзия Цветы флора видео Аудиокниги Россия истории Alternative Rock музыка живопись интересно кружево креатив Progressive AOR metal video рисование игрушки рисунки Folk music rock music Video rock rock video творчество metal music стили Lossles огород кулинария загород скачать журналы дом Folk Rock Progressive Metal мастерок INSTRUMENTAL Power Metal русский альбом люди Blues сад дизайн metal Download lossless Heavy Metal Hard Rock Blues Rock progressive rock рукоделие история архитектура Новый Год фэнтази фото политика жл советы книги рецепты кухня выпечка hand made интерьер уют шитье пэчворк печворк детская одежда вязание спицы Вяжем Детям женская одежда мода модели фотоальбом фотографы Живность детская вышивка Журналы женщины Фантастика журналы по вязанию


    Copyright Crown6 © 2017 Копирование возможно только с прямой ссылкой на сайт